<?xml version="1.0" standalone="no"?>
<!DOCTYPE svg PUBLIC "-//W3C//DTD SVG 1.1//EN" "http://www.w3.org/Graphics/SVG/1.1/DTD/svg11.dtd" >
<svg xmlns="http://www.w3.org/2000/svg">
<metadata></metadata>
<defs>
<font id="din_lightalternateregular" horiz-adv-x="1052" >
<font-face units-per-em="2048" ascent="1638" descent="-410" />
<missing-glyph horiz-adv-x="522" />
<glyph horiz-adv-x="2048" />
<glyph horiz-adv-x="2048" />
<glyph unicode="&#xd;" horiz-adv-x="2048" />
<glyph unicode=" "  horiz-adv-x="522" />
<glyph unicode="&#x09;" horiz-adv-x="522" />
<glyph unicode="&#xa0;" horiz-adv-x="522" />
<glyph unicode="!" horiz-adv-x="622" d="M260 76q0 34 24 58t58 24t58 -24t24 -58t-24 -58t-58 -24t-58 24t-24 58zM285 1458h114l-12 -1065h-90z" />
<glyph unicode="&#x22;" horiz-adv-x="835" d="M195 1139v319h129v-319h-129zM512 1139v319h129v-319h-129z" />
<glyph unicode="#" horiz-adv-x="1308" d="M172 492v90h211l51 313h-203v92h215l74 471h107l-76 -471h358l74 471h102l-73 -471h192v-92h-205l-51 -313h197v-90h-211l-78 -492h-104l79 492h-360l-76 -492h-104l78 492h-197zM485 582h359l51 313h-358z" />
<glyph unicode="$" horiz-adv-x="1202" d="M104 180l78 78q87 -87 169 -125.5t192 -44.5v604l-33 4q-75 10 -145 40t-115 67q-115 100 -115 268q0 172 109.5 278.5t298.5 118.5v183h92v-183q113 -6 199.5 -43t173.5 -112l-72 -72q-67 60 -135.5 93t-165.5 40v-594l59 -10q106 -19 160.5 -39t99.5 -57 q127 -105 127 -283q0 -175 -119.5 -283t-326.5 -118v-223h-92v221q-140 6 -242 51.5t-197 140.5zM244 1075q0 -127 75 -190q86 -72 224 -90v579q-141 -10 -220 -90t-79 -209zM635 88q157 9 246.5 88t89.5 211q0 134 -80 205q-19 16 -41 29t-37 20t-44 13.5t-40 8.5t-48 7 t-46 6v-588z" />
<glyph unicode="%" horiz-adv-x="1695" d="M141 979v219q0 122 75.5 198.5t195.5 76.5q118 0 193 -76.5t75 -198.5v-219q0 -120 -75 -196t-193 -76q-120 0 -195.5 76t-75.5 196zM231 983q0 -199 181 -199q91 0 134.5 52.5t43.5 146.5v211q0 201 -178 201q-181 0 -181 -201v-211zM463 0l680 1458h92l-680 -1458h-92z M1016 260v219q0 122 75 198.5t195 76.5q118 0 193 -76.5t75 -198.5v-219q0 -121 -74.5 -197.5t-193.5 -76.5q-120 0 -195 76t-75 198zM1106 264q0 -201 180 -201q178 0 178 201v211q0 201 -178 201q-180 0 -180 -201v-211z" />
<glyph unicode="&#x26;" horiz-adv-x="1527" d="M172 403q0 38 6.5 73t15 63.5t27.5 58.5t33 51t42.5 47.5t46 42t52.5 41t53.5 38t57.5 38.5q-37 43 -59.5 73.5t-49.5 73.5t-40 87.5t-13 89.5q0 123 86 206.5t211 83.5t211 -84.5t86 -207.5q0 -152 -168 -263q-73 -50 -108 -73l417 -506q49 76 67.5 151t18.5 211h109 q0 -288 -127 -444l209 -254h-142l-141 172q-191 -184 -448 -184q-201 0 -327 114.5t-126 300.5zM283 410q0 -144 94.5 -234t245.5 -90q98 0 192 35.5t197 126.5l-443 534q-8 -5 -24 -16q-121 -83 -169 -134q-93 -98 -93 -222zM455 1184q0 -56 29.5 -111.5t113.5 -157.5 l84 58q70 47 108.5 93.5t38.5 111.5q0 83 -54 138.5t-134 55.5t-133 -53.5t-53 -134.5z" />
<glyph unicode="'" horiz-adv-x="518" d="M195 1139v319h129v-319h-129z" />
<glyph unicode="(" horiz-adv-x="581" d="M199 162v1134q0 117 39 191q16 30 38 59t39 46.5t58 58.5l71 -72l-16 -16l-17 -17l-15 -15t-15 -16.5t-12.5 -15.5t-13.5 -17.5t-10.5 -17t-10.5 -18.5q-31 -67 -31 -162v-1110q0 -95 31 -162q5 -9 10.5 -18.5t10.5 -17t13.5 -17.5t12.5 -15.5t15 -16.5l15 -15l17 -17 l16 -16l-71 -72q-41 41 -58 58.5t-39 46.5t-38 59q-39 74 -39 191z" />
<glyph unicode=")" horiz-adv-x="581" d="M133 -117l18.5 18.5l19 19t16.5 17t17 19t14.5 18t14.5 20.5t11 21q28 60 28 158v1110q0 98 -28 158q-5 11 -11 21t-14.5 20.5t-14.5 18t-17 19t-16.5 17l-19 19l-18.5 18.5l76 76q41 -41 58 -58.5t39 -46.5t38 -59q39 -70 39 -191v-1134q0 -121 -39 -191 q-16 -30 -38 -59t-39 -46.5t-58 -58.5z" />
<glyph unicode="*" horiz-adv-x="956" d="M147 975l252 139l-252 139l46 78l245 -149l-6 288h92l-6 -288l246 149l45 -78l-252 -139l252 -139l-45 -78l-246 150l6 -289h-92l6 289l-245 -150z" />
<glyph unicode="+" d="M109 492v96h370v368h96v-368h369v-96h-369v-371h-96v371h-370z" />
<glyph unicode="," horiz-adv-x="528" d="M195 139h139v-278l-139 -140v418z" />
<glyph unicode="-" horiz-adv-x="872" d="M168 492v96h537v-96h-537z" />
<glyph unicode="." horiz-adv-x="540" d="M176 88q0 38 28 66t66 28t66.5 -28t28.5 -66t-28.5 -66t-66.5 -28t-66 28t-28 66z" />
<glyph unicode="/" horiz-adv-x="692" d="M0 -152l584 1762h108l-583 -1762h-109z" />
<glyph unicode="0" d="M143 377v469q0 171 107.5 280t275.5 109t275.5 -109t107.5 -280v-469q0 -171 -107.5 -280t-275.5 -109t-275.5 109t-107.5 280zM248 387q0 -134 73 -220.5t205 -86.5t205.5 86.5t73.5 220.5v449q0 134 -73.5 220.5t-205.5 86.5t-205 -86.5t-73 -220.5v-449z" />
<glyph unicode="1" horiz-adv-x="716" d="M102 870v125l265 228h104v-1223h-104v1104z" />
<glyph unicode="2" horiz-adv-x="1005" d="M82 0v92l528 529q138 138 138 292q0 114 -79.5 192.5t-199.5 78.5q-117 0 -198 -77.5t-81 -195.5h-104q0 154 108.5 259.5t274.5 105.5q171 0 277 -105t106 -258q0 -186 -164 -350l-471 -471h676v-92h-811z" />
<glyph unicode="3" horiz-adv-x="1042" d="M82 117h104q10 -140 98.5 -208.5t213.5 -68.5q134 0 221.5 84.5t87.5 227.5q0 311 -318 311h-24v92h24q144 0 216.5 75.5t72.5 217.5q0 140 -79.5 217.5t-202.5 77.5q-127 0 -202 -71t-89 -195h-105q15 167 124.5 262.5t271.5 95.5q172 0 279.5 -106.5t107.5 -280.5 q0 -245 -207 -332q235 -80 235 -364q0 -189 -116 -296.5t-297 -107.5q-178 0 -292 93.5t-124 275.5z" />
<glyph unicode="4" horiz-adv-x="1071" d="M72 61v93l557 1126h108l-557 -1126h510v462h105v-462h194v-93h-194v-313h-105v313h-618z" />
<glyph unicode="5" horiz-adv-x="1034" d="M123 86h104q31 -244 275 -244q126 0 200 74q40 40 61 101.5t24.5 107t3.5 117.5q0 62 -5 111t-22 103.5t-46 90.5t-80 60t-120 24q-100 0 -170.5 -40.5t-93.5 -113.5h-92v746h700v-93h-608v-516q93 109 276 109q158 0 246 -88q119 -119 119 -393q0 -130 -21.5 -223.5 t-91.5 -163.5q-105 -105 -280 -105q-187 0 -281 98q-86 86 -98 238z" />
<glyph unicode="6" horiz-adv-x="1062" d="M113 432q0 168 94 332l414 727h108l-375 -643q86 43 187 43q190 0 299.5 -125t109.5 -317q0 -198 -112.5 -329.5t-305.5 -131.5q-196 0 -307.5 122.5t-111.5 321.5zM217 438q0 -164 84.5 -263t228.5 -99t230 99.5t86 262.5q0 99 -34.5 180.5t-107.5 133t-174 51.5 q-144 0 -228.5 -100t-84.5 -265z" />
<glyph unicode="7" horiz-adv-x="989" d="M92 901v322h826v-93l-615 -1386h-108l614 1386h-612v-229h-105z" />
<glyph unicode="8" horiz-adv-x="1077" d="M123 393q0 122 61.5 214.5t169.5 150.5q-200 109 -200 332q0 163 108 271.5t277 108.5t277 -108.5t108 -271.5q0 -224 -199 -332q108 -57 168.5 -150t60.5 -215q0 -174 -119 -289.5t-296 -115.5q-178 0 -297 115.5t-119 289.5zM227 393q0 -133 90 -223t222 -90t221.5 90 t89.5 223q0 134 -89.5 225t-221.5 91t-222 -91t-90 -225zM258 1090q0 -128 78.5 -208.5t202.5 -80.5t202 80.5t78 208.5q0 126 -78 207t-202 81t-202.5 -81t-78.5 -207z" />
<glyph unicode="9" horiz-adv-x="1062" d="M113 774q0 198 112 329.5t305 131.5q196 0 308 -122.5t112 -321.5q0 -168 -94 -332l-414 -727h-108l375 643q-86 -43 -187 -43q-190 0 -299.5 125t-109.5 317zM217 784q0 -99 34 -180t107 -132.5t174 -51.5q144 0 229 99.5t85 264.5q0 164 -85 263.5t-229 99.5 t-229.5 -99.5t-85.5 -263.5z" />
<glyph unicode=":" horiz-adv-x="598" d="M233 88q0 38 28.5 66t66.5 28t66 -28t28 -66t-28 -66t-66 -28t-66.5 28t-28.5 66zM233 702q0 38 28.5 66.5t66.5 28.5t66 -28.5t28 -66.5t-28 -66t-66 -28t-66.5 28t-28.5 66z" />
<glyph unicode=";" horiz-adv-x="598" d="M233 702q0 38 28.5 66.5t66.5 28.5t66 -28.5t28 -66.5t-28 -66t-66 -28t-66.5 28t-28.5 66zM258 139h139v-278l-139 -140v418z" />
<glyph unicode="&#x3c;" horiz-adv-x="2103" d="M225 432v141l776 -776v1678h103v-1678l776 776v-141l-827 -827z" />
<glyph unicode="=" d="M109 334v96h835v-96h-835zM109 647v96h835v-96h-835z" />
<glyph unicode="&#x3e;" horiz-adv-x="2103" d="M225 506v141l828 828l827 -828v-141l-776 776v-1677h-103v1677z" />
<glyph unicode="?" horiz-adv-x="999" d="M164 1110q0 150 103 255t263 105q157 0 262 -103t105 -257q0 -65 -22.5 -121.5t-67.5 -122.5l-174 -256q-37 -53 -37 -123v-96h-104v92q0 57 13.5 98t45.5 87l172 254q36 54 53 94.5t17 93.5q0 114 -75.5 191t-187.5 77q-117 0 -189.5 -78.5t-72.5 -189.5h-104zM461 76 q0 34 24 58t58 24t58 -24t24 -58t-24 -58t-58 -24t-58 24t-24 58z" />
<glyph unicode="@" horiz-adv-x="1427" d="M158 322v716q0 195 112 310q107 110 289 110h307q179 0 289 -110q115 -115 115 -310v-1038h-105v121q-51 -69 -119.5 -102t-164.5 -33q-183 0 -285 133q-47 65 -67.5 150.5t-20.5 224.5q0 135 18.5 222t61.5 148q44 64 121.5 100.5t169.5 36.5q180 0 286 -139v182 q0 87 -19 141.5t-65 102.5q-86 86 -233 86h-270q-146 0 -232 -86q-47 -47 -65.5 -100t-18.5 -144v-722q0 -104 25 -156.5t102 -108.5l-72 -71q-95 66 -127 133.5t-32 202.5zM612 494q0 -69 5 -121.5t22 -111t46 -96t81 -62.5t123 -25q60 0 106 16t75 47.5t49 68.5t29.5 87.5 t13 95.5t3.5 101q0 69 -5 121.5t-21.5 110.5t-45.5 95.5t-81 62.5t-123 25t-123 -25t-81 -62.5t-46 -95.5t-22 -110.5t-5 -121.5z" />
<glyph unicode="A" horiz-adv-x="1232" d="M31 0l536 1458h99l536 -1458h-119l-127 354h-680l-126 -354h-119zM311 453h611l-306 858z" />
<glyph unicode="B" horiz-adv-x="1374" d="M225 0v1458h537q186 0 304 -102t118 -279q0 -115 -61.5 -203.5t-166.5 -123.5q118 -40 184 -133.5t66 -219.5q0 -191 -115 -294t-313 -103h-553zM336 98h430q150 0 240 80.5t90 218.5t-90 218.5t-240 80.5h-430v-598zM336 795h414q92 0 162.5 27.5t115.5 92.5t45 162 q0 143 -90.5 213t-232.5 70h-414v-565z" />
<glyph unicode="C" horiz-adv-x="1220" d="M168 729q0 101 1 151t4.5 117.5t12 103t23.5 79.5t38 76t56 65q72 72 167 110.5t198 38.5q123 0 219.5 -46t191.5 -136l-73 -74q-83 82 -157.5 120t-180.5 38q-168 0 -277 -112q-74 -74 -93 -176t-19 -355q0 -252 19 -354t93 -176q110 -113 277 -113q106 0 180.5 38 t157.5 120l73 -74q-95 -90 -191.5 -136t-219.5 -46q-103 0 -198 38.5t-167 110.5q-33 33 -56 65t-38 76t-23.5 79.5t-12 103t-4.5 117.5t-1 151z" />
<glyph unicode="D" horiz-adv-x="1388" d="M225 0v1458h490q231 0 364 -133q31 -31 54.5 -70t38 -71.5t25 -86.5t15 -82t7 -92.5t2.5 -84v-88.5v-90.5t-2.5 -90t-7 -101t-15 -90.5t-25 -95t-38.5 -78t-54 -72q-133 -133 -364 -133h-490zM336 98h352q203 0 313 113q39 40 63 99.5t33 141.5t11 131.5t2 137.5v29v29 q0 82 -2 128.5t-11 119t-33 126.5t-63 94q-110 113 -313 113h-352v-1262z" />
<glyph unicode="E" horiz-adv-x="1224" d="M225 0v1458h885v-98h-774v-576h659v-98h-659v-588h774v-98h-885z" />
<glyph unicode="F" horiz-adv-x="1179" d="M225 0v1458h885v-98h-774v-600h659v-98h-659v-662h-111z" />
<glyph unicode="G" horiz-adv-x="1327" d="M168 729q0 101 1 151t4.5 117.5t12 103t23.5 79.5t38 76t56 65q72 72 167 110.5t198 38.5q134 0 232 -49t202 -153l-74 -74q-94 94 -170 136t-190 42q-165 0 -277 -112q-74 -74 -93 -176t-19 -355q0 -252 19 -354t93 -176q110 -113 277 -113q87 0 167 36.5t136 104.5 q47 58 67.5 126t20.5 163v131h-391v98h501v-237q0 -116 -27.5 -200t-90.5 -152q-72 -80 -172.5 -124t-210.5 -44q-103 0 -198 38.5t-167 110.5q-33 33 -56 65t-38 76t-23.5 79.5t-12 103t-4.5 117.5t-1 151z" />
<glyph unicode="H" horiz-adv-x="1431" d="M225 0v1458h111v-674h760v674h110v-1458h-110v686h-760v-686h-111z" />
<glyph unicode="I" horiz-adv-x="561" d="M225 0v1458h111v-1458h-111z" />
<glyph unicode="J" horiz-adv-x="1019" d="M61 113l76 75q50 -50 103 -76t141 -26q156 0 240 96t84 271v1005h110v-1028q0 -200 -118.5 -321t-315.5 -121q-195 0 -320 125z" />
<glyph unicode="K" horiz-adv-x="1320" d="M225 0v1458h111v-911l739 911h133l-450 -557l526 -901h-131l-469 817l-348 -422v-395h-111z" />
<glyph unicode="L" horiz-adv-x="1171" d="M225 0v1458h111v-1360h774v-98h-885z" />
<glyph unicode="M" horiz-adv-x="1675" d="M225 0v1458h111l508 -1124l495 1124h111v-1458h-111v1202l-442 -997h-111l-450 997v-1202h-111z" />
<glyph unicode="N" horiz-adv-x="1513" d="M225 0v1458h111l842 -1263v1263h110v-1458h-110l-842 1268v-1268h-111z" />
<glyph unicode="O" horiz-adv-x="1335" d="M168 729q0 101 1 151t4.5 117.5t12 103t23.5 79.5t38 76t56 65q72 72 167 110.5t198 38.5t197.5 -38.5t166.5 -110.5q33 -33 56 -65t38 -76t23.5 -79.5t11.5 -103t4.5 -117.5t1.5 -151t-1 -151t-4.5 -117.5t-12 -103t-23.5 -79.5t-38 -76t-56 -65q-72 -72 -166.5 -110.5 t-197.5 -38.5t-198 38.5t-167 110.5q-33 33 -56 65t-38 76t-23.5 79.5t-12 103t-4.5 117.5t-1 151zM279 729q0 -252 19 -354t93 -176q113 -113 277 -113q163 0 276 113q74 74 93.5 176.5t19.5 353.5t-19.5 354t-93.5 177q-112 112 -276 112q-165 0 -277 -112 q-74 -74 -93 -176t-19 -355z" />
<glyph unicode="P" horiz-adv-x="1292" d="M225 0v1458h535q194 0 317 -112.5t123 -307.5t-123 -307.5t-317 -112.5h-424v-618h-111zM336 717h412q157 0 249.5 81t92.5 240t-92.5 240.5t-249.5 81.5h-412v-643z" />
<glyph unicode="Q" horiz-adv-x="1333" d="M168 729q0 101 1 151t4.5 117.5t12 103t23.5 79.5t38 76t56 65q72 72 167 110.5t198 38.5t197.5 -38.5t166.5 -110.5q33 -33 56 -65t38 -76t23.5 -79.5t12 -103t4.5 -117.5t1 -151q0 -256 -16.5 -364.5t-87.5 -192.5l172 -172l-74 -74l-172 172q-137 -110 -321 -110 q-103 0 -198 38.5t-167 110.5q-33 33 -56 65t-38 76t-23.5 79.5t-12 103t-4.5 117.5t-1 151zM279 729q0 -252 19 -354t93 -176q113 -113 277 -113q138 0 247 86l-204 205l73 74l203 -203q45 67 57.5 166.5t12.5 314.5q0 251 -19.5 354t-93.5 177q-112 112 -276 112 q-165 0 -277 -112q-74 -74 -93 -176t-19 -355z" />
<glyph unicode="R" horiz-adv-x="1345" d="M225 0v1458h555q185 0 301.5 -103t116.5 -288q0 -161 -90 -263.5t-246 -129.5l352 -674h-129l-348 672h-401v-672h-111zM336 770h430q146 0 233.5 75t87.5 220t-87.5 220t-233.5 75h-430v-590z" />
<glyph unicode="S" horiz-adv-x="1202" d="M104 180l78 78q97 -97 188.5 -134.5t225.5 -37.5q173 0 274 80t101 221q0 134 -80 205q-40 34 -81 49.5t-130 28.5l-170 26q-164 24 -260 107q-115 97 -115 268q0 183 122 291t331 108q132 0 228 -36.5t192 -120.5l-72 -72q-76 68 -154.5 101.5t-199.5 33.5 q-157 0 -247.5 -81t-90.5 -220q0 -127 75 -190q83 -70 218 -90l157 -25q101 -15 157 -36t103 -60q127 -105 127 -283q0 -185 -132 -294t-359 -109q-160 0 -272.5 45.5t-213.5 146.5z" />
<glyph unicode="T" horiz-adv-x="1103" d="M61 1360v98h981v-98h-436v-1360h-110v1360h-435z" />
<glyph unicode="U" horiz-adv-x="1409" d="M205 473v985h110v-971q0 -181 107.5 -291t282.5 -110t282 110t107 291v971h110v-985q0 -214 -139.5 -349.5t-359.5 -135.5t-360 135.5t-140 349.5z" />
<glyph unicode="V" horiz-adv-x="1093" d="M20 1458h117l410 -1263l409 1263h117l-479 -1458h-94z" />
<glyph unicode="W" horiz-adv-x="1724" d="M41 1458h117l307 -1268l340 1268h115l340 -1268l307 1268h116l-364 -1458h-113l-344 1270l-344 -1270h-112z" />
<glyph unicode="X" horiz-adv-x="1089" d="M37 0l446 748l-417 710h129l348 -612l350 612h127l-418 -710l451 -748h-129l-381 649l-381 -649h-125z" />
<glyph unicode="Y" horiz-adv-x="1011" d="M20 1458h119l371 -737l362 737h119l-430 -854v-604h-110v604z" />
<glyph unicode="Z" horiz-adv-x="1144" d="M129 0v117l768 1243h-737v98h856v-98l-774 -1262h774v-98h-887z" />
<glyph unicode="[" horiz-adv-x="593" d="M199 -152v1762h303v-92h-199v-1577h199v-93h-303z" />
<glyph unicode="\" horiz-adv-x="692" d="M0 1610h109l583 -1762h-108z" />
<glyph unicode="]" horiz-adv-x="593" d="M92 -66h205v1590h-205v86h303v-1762h-303v86z" />
<glyph unicode="^" d="M156 864l323 606h94l324 -606h-104l-267 496l-266 -496h-104z" />
<glyph unicode="_" d="M0 -250h1053v-78h-1053v78z" />
<glyph unicode="`" horiz-adv-x="1024" d="M272 1509h138l198 -301h-119z" />
<glyph unicode="a" horiz-adv-x="1073" d="M115 270q0 135 91 210t253 75h319v111q0 122 -65.5 181.5t-212.5 59.5q-104 0 -165.5 -28.5t-107.5 -96.5l-75 66q61 85 142 118t206 33q192 0 287.5 -82.5t95.5 -240.5v-676h-105v98q-62 -62 -128.5 -86t-172.5 -24q-110 0 -177 20.5t-114 69.5q-71 74 -71 192zM219 272 q0 -99 62.5 -145.5t195.5 -46.5q81 0 139.5 15t106.5 61q55 52 55 188v127h-307q-252 0 -252 -199z" />
<glyph unicode="b" horiz-adv-x="1105" d="M199 0v1458h104v-598q60 80 130 109.5t163 29.5q75 0 139 -23.5t103 -62.5q127 -127 127 -419q0 -293 -127 -420q-39 -39 -103 -62.5t-139 -23.5q-93 0 -163 29.5t-130 109.5v-127h-104zM303 494q0 -69 5.5 -123t23 -110.5t47.5 -94.5t81.5 -62t121.5 -24t121.5 24 t81 61.5t47 95t23 111t5.5 122.5t-5.5 122.5t-23 110.5t-47 94.5t-81 61.5t-121.5 24t-121.5 -24t-81.5 -61.5t-47.5 -94.5t-23 -110.5t-5.5 -122.5z" />
<glyph unicode="c" horiz-adv-x="1009" d="M141 494q0 235 116.5 370t317.5 135q104 0 176 -32.5t150 -118.5l-72 -66q-63 70 -119 97.5t-135 27.5q-172 0 -262 -131q-37 -54 -52 -118t-15 -164t15 -164.5t52 -118.5q90 -131 262 -131q79 0 135 27.5t119 97.5l72 -66q-78 -86 -150 -118.5t-176 -32.5 q-201 0 -317.5 135.5t-116.5 370.5z" />
<glyph unicode="d" horiz-adv-x="1105" d="M141 494q0 292 127 419q39 39 103 62.5t139 23.5q93 0 163 -29.5t130 -109.5v598h104v-1458h-104v127q-60 -80 -130 -109.5t-163 -29.5q-75 0 -139 23.5t-103 62.5q-127 127 -127 420zM246 494q0 -69 5.5 -122.5t23 -111t47 -95t81 -61.5t121.5 -24t121.5 24t81.5 62 t47.5 94.5t23 110.5t5.5 123t-5.5 122.5t-23 110.5t-47.5 94.5t-81.5 61.5t-121.5 24t-121.5 -24t-81 -61.5t-47 -94.5t-23 -110.5t-5.5 -122.5z" />
<glyph unicode="e" horiz-adv-x="1071" d="M141 494q0 238 105 371.5t291 133.5q185 0 290 -128t105 -353v-47h-686q0 -188 82.5 -288.5t238.5 -100.5q86 0 147.5 27.5t125.5 91.5l78 -62q-79 -79 -159 -115t-198 -36q-204 0 -312 129.5t-108 376.5zM246 555h581q-3 72 -9.5 106.5t-24.5 79.5q-32 76 -101.5 121 t-154.5 45t-154.5 -45t-101.5 -121q-19 -46 -25.5 -81t-9.5 -105z" />
<glyph unicode="f" horiz-adv-x="622" d="M94 909v78h135v213q0 116 62 187t176 71h90v-92h-72q-151 0 -151 -164v-215h223v-78h-223v-909h-105v909h-135z" />
<glyph unicode="g" horiz-adv-x="1105" d="M141 494q0 292 127 419q39 39 103 62.5t139 23.5q93 0 163 -29.5t130 -109.5v127h104v-1042q0 -190 -107.5 -309t-295.5 -119q-106 0 -175 29.5t-151 101.5l70 69q66 -59 117.5 -83.5t138.5 -24.5q149 0 224 94t75 248v176q-60 -80 -130 -109.5t-163 -29.5 q-75 0 -139 23.5t-103 62.5q-127 127 -127 420zM246 494q0 -69 5.5 -122.5t23 -111t47 -95t81 -61.5t121.5 -24t121.5 24t81.5 62t47.5 94.5t23 110.5t5.5 123t-5.5 122.5t-23 110.5t-47.5 94.5t-81.5 61.5t-121.5 24t-121.5 -24t-81 -61.5t-47 -94.5t-23 -110.5 t-5.5 -122.5z" />
<glyph unicode="h" horiz-adv-x="1144" d="M199 0v1458h104v-588q111 129 291 129q169 0 266.5 -99t97.5 -269v-631h-104v612q0 143 -70 219t-202 76t-205.5 -77.5t-73.5 -217.5v-612h-104z" />
<glyph unicode="i" horiz-adv-x="501" d="M174 1393q0 32 22.5 54.5t53.5 22.5q32 0 55 -22t23 -53q0 -32 -22.5 -55t-53.5 -23q-32 0 -55 22.5t-23 53.5zM199 0v987h104v-987h-104z" />
<glyph unicode="j" horiz-adv-x="501" d="M-25 -379h72q85 0 118.5 39.5t33.5 126.5v1200h104v-1202q0 -119 -60 -187.5t-177 -68.5h-91v92zM174 1393q0 32 22.5 54.5t53.5 22.5q32 0 55 -22t23 -53q0 -32 -22.5 -55t-53.5 -23q-32 0 -55 22.5t-23 53.5z" />
<glyph unicode="k" horiz-adv-x="1079" d="M199 0v1458h104v-1028l490 557h133l-326 -369l397 -618h-129l-340 543l-225 -260v-283h-104z" />
<glyph unicode="l" horiz-adv-x="587" d="M195 256v1202h104v-1200q0 -87 33.5 -126.5t118.5 -39.5h71v-92h-90q-117 0 -177 68.5t-60 187.5z" />
<glyph unicode="m" horiz-adv-x="1798" d="M199 0v987h104v-117q111 129 293 129q109 0 191 -46.5t126 -133.5q114 180 336 180q163 0 260 -94q103 -98 103 -274v-631h-103v612q0 143 -70 219t-202 76q-127 0 -203 -75t-76 -201v-631h-104v612q0 143 -70 219t-202 76t-205.5 -77.5t-73.5 -217.5v-612h-104z" />
<glyph unicode="n" horiz-adv-x="1144" d="M199 0v987h104v-117q111 129 291 129q165 0 262 -94q102 -97 102 -274v-631h-104v612q0 143 -70 219t-202 76t-205.5 -77.5t-73.5 -217.5v-612h-104z" />
<glyph unicode="o" horiz-adv-x="1077" d="M141 494q0 274 123 397q108 108 275 108q166 0 274 -108q123 -123 123 -397q0 -275 -123 -398q-108 -108 -274 -108q-167 0 -275 108q-123 123 -123 398zM246 494q0 -112 16.5 -193.5t71.5 -136.5q84 -84 205 -84q120 0 204 84q55 55 71.5 136.5t16.5 193.5t-16.5 193 t-71.5 136q-84 84 -204 84q-121 0 -205 -84q-55 -55 -71.5 -136t-16.5 -193z" />
<glyph unicode="p" horiz-adv-x="1105" d="M199 -471v1458h104v-127q60 80 130 109.5t163 29.5q75 0 139 -23.5t103 -62.5q127 -127 127 -419q0 -293 -127 -420q-39 -39 -103 -62.5t-139 -23.5q-93 0 -163 29.5t-130 109.5v-598h-104zM303 494q0 -69 5.5 -123t23 -110.5t47.5 -94.5t81.5 -62t121.5 -24t121.5 24 t81 61.5t47 95t23 111t5.5 122.5t-5.5 122.5t-23 110.5t-47 94.5t-81 61.5t-121.5 24t-121.5 -24t-81.5 -61.5t-47.5 -94.5t-23 -110.5t-5.5 -122.5z" />
<glyph unicode="q" horiz-adv-x="1105" d="M141 494q0 292 127 419q39 39 103 62.5t139 23.5q93 0 163 -29.5t130 -109.5v127h104v-1458h-104v598q-60 -80 -130 -109.5t-163 -29.5q-75 0 -139 23.5t-103 62.5q-127 127 -127 420zM246 494q0 -69 5.5 -122.5t23 -111t47 -95t81 -61.5t121.5 -24t121.5 24t81.5 62 t47.5 94.5t23 110.5t5.5 123t-5.5 122.5t-23 110.5t-47.5 94.5t-81.5 61.5t-121.5 24t-121.5 -24t-81 -61.5t-47 -94.5t-23 -110.5t-5.5 -122.5z" />
<glyph unicode="r" horiz-adv-x="837" d="M199 0v987h104v-131q42 67 120.5 105t168.5 38q143 0 237 -94l-75 -76q-44 44 -84.5 61t-102.5 17q-123 0 -193.5 -86.5t-70.5 -212.5v-608h-104z" />
<glyph unicode="s" horiz-adv-x="1011" d="M102 129l72 72q115 -121 324 -121q145 0 221 51t76 150q0 76 -46 116t-143 49l-164 15q-297 24 -297 258q0 127 97 203.5t258 76.5q210 0 346 -104l-70 -70q-116 84 -276 84q-121 0 -186.5 -49.5t-65.5 -140.5q0 -77 48.5 -117t152.5 -49l159 -14q53 -4 93.5 -13.5 t78.5 -28t63 -46t39.5 -71t14.5 -99.5q0 -135 -106.5 -214t-288.5 -79q-253 0 -400 141z" />
<glyph unicode="t" horiz-adv-x="665" d="M88 909v78h135v316h105v-316h223v-78h-223v-653q0 -164 151 -164h72v-92h-90q-114 0 -176 71t-62 187v651h-135z" />
<glyph unicode="u" horiz-adv-x="1144" d="M186 356v631h105v-612q0 -143 70 -219t202 -76t205.5 77.5t73.5 217.5v612h104v-987h-104v117q-111 -129 -291 -129q-165 0 -262 94q-103 98 -103 274z" />
<glyph unicode="v" horiz-adv-x="880" d="M29 987h114l297 -864l297 864h115l-360 -987h-103z" />
<glyph unicode="w" horiz-adv-x="1458" d="M29 987h114l252 -864l283 864h102l283 -864l252 864h115l-316 -987h-106l-279 823l-278 -823h-107z" />
<glyph unicode="x" horiz-adv-x="942" d="M82 0l334 504l-320 483h127l250 -397l246 397h127l-320 -483l334 -504h-127l-260 416l-264 -416h-127z" />
<glyph unicode="y" horiz-adv-x="880" d="M29 987h114l297 -864l297 864h115l-459 -1255q-27 -81 -67 -115q-66 -63 -187 -63h-49v92h39q81 0 116 28.5t64 106.5l80 219z" />
<glyph unicode="z" horiz-adv-x="925" d="M111 0v98l594 797h-562v92h672v-98l-596 -797h596v-92h-704z" />
<glyph unicode="{" horiz-adv-x="647" d="M102 684v90h37q49 0 88 39q37 37 37 123v424q0 82 11.5 123t41.5 71t76.5 43t122.5 13h29v-92h-27q-55 0 -80.5 -6t-40.5 -21q-28 -32 -28 -133v-424q0 -78 -29.5 -125t-95.5 -80q66 -33 95.5 -80t29.5 -125v-424q0 -101 28 -133q15 -15 40.5 -20.5t80.5 -5.5h27v-93h-29 q-76 0 -122.5 13t-76.5 43t-41.5 71t-11.5 123v424q0 86 -37 123q-39 39 -88 39h-37z" />
<glyph unicode="|" horiz-adv-x="649" d="M272 -152v1762h105v-1762h-105z" />
<glyph unicode="}" horiz-adv-x="647" d="M102 -59h27q55 0 80.5 5.5t40.5 20.5q29 33 29 133v424q0 78 29 125t95 80q-66 33 -95 80t-29 125v424q0 100 -29 133q-15 15 -40.5 21t-80.5 6h-27v92h29q76 0 122.5 -13t76.5 -43t41.5 -71t11.5 -123v-424q0 -86 37 -123q39 -39 88 -39h37v-90h-37q-49 0 -88 -39 q-37 -37 -37 -123v-424q0 -82 -11.5 -123t-41.5 -71t-76.5 -43t-122.5 -13h-29v93z" />
<glyph unicode="~" d="M109 522q80 80 126.5 103.5t110.5 23.5q14 0 28 -1.5t31 -6t27.5 -7.5t31.5 -11t28.5 -11t32 -13.5t30.5 -12.5q90 -39 127 -45q15 -2 29 -2q46 0 78.5 16.5t91.5 75.5l63 -64q-80 -80 -126.5 -103.5t-110.5 -23.5q-16 0 -35 3t-32 6t-36 11.5t-33 12.5t-38 16l-35 15 q-90 39 -127 45q-15 2 -29 2q-46 0 -78.5 -16.5t-91.5 -75.5z" />
<glyph unicode="&#xa1;" horiz-adv-x="622" d="M199 911q0 34 24 58t58 24t57.5 -24t23.5 -58t-23.5 -58t-57.5 -24t-58 24t-24 58zM223 -471l13 1065h90l12 -1065h-115z" />
<glyph unicode="&#xa2;" horiz-adv-x="1019" d="M141 750q0 214 98 346.5t271 154.5v207h88v-203q94 -3 161.5 -36t141.5 -115l-72 -66q-58 66 -110 94t-121 31v-827q69 3 121 31t110 94l72 -66q-74 -82 -141.5 -115t-161.5 -36v-244h-88v248q-172 22 -270.5 155t-98.5 347zM246 750q0 -100 15 -164.5t52 -118.5 q72 -104 197 -125v815q-125 -21 -197 -125q-37 -54 -52 -118t-15 -164z" />
<glyph unicode="&#xa3;" horiz-adv-x="1099" d="M102 700v78h131v250q0 200 118.5 321t316.5 121q195 0 319 -124l-76 -76q-50 50 -102.5 76t-140.5 26q-156 0 -240 -95.5t-84 -270.5v-228h324v-78h-324v-602h643v-98h-754v700h-131z" />
<glyph unicode="&#xa4;" horiz-adv-x="1345" d="M174 111l152 151q-99 123 -99 281q0 159 99 282l-152 150l66 65l151 -149q120 96 281 96q160 0 280 -96l154 149l65 -65l-151 -150q96 -120 96 -282q0 -161 -96 -281l151 -151l-65 -66l-154 152q-123 -99 -280 -99q-158 0 -281 99l-151 -152zM326 543 q0 -145 100.5 -245.5t245.5 -100.5t245.5 100.5t100.5 245.5t-100.5 245.5t-245.5 100.5t-245.5 -100.5t-100.5 -245.5z" />
<glyph unicode="&#xa5;" horiz-adv-x="1009" d="M20 1458h117l371 -739l366 739h115l-334 -667h222v-78h-261l-55 -109v-108h316v-78h-316v-418h-110v418h-318v78h318v108l-56 109h-262v78h223z" />
<glyph unicode="&#xa6;" horiz-adv-x="671" d="M272 -152v717h105v-717h-105zM272 893v717h105v-717h-105z" />
<glyph unicode="&#xa7;" horiz-adv-x="1159" d="M199 506q0 123 63.5 213t161.5 135q-100 43 -151.5 112t-51.5 177q0 149 103 238t256 89q151 0 254 -82.5t110 -226.5h-108q-10 111 -75 162t-181 51q-117 0 -183.5 -58.5t-66.5 -172.5q0 -168 186 -219l170 -47q127 -35 201 -136.5t74 -234.5q0 -123 -64 -213t-162 -135 q97 -33 154 -112.5t57 -186.5q0 -150 -102.5 -246t-263.5 -96q-157 0 -262 84.5t-115 232.5h110q10 -109 79 -164t188 -55t187.5 63.5t68.5 180.5q0 81 -52.5 142.5t-140.5 86.5l-170 47q-129 36 -201.5 136.5t-72.5 234.5zM309 506q0 -129 72 -207q78 -84 199 -84 q120 0 198 84q72 78 72 207q0 66 -15.5 116t-56.5 91q-84 84 -198 84q-121 0 -199 -84q-40 -43 -56 -91t-16 -116z" />
<glyph unicode="&#xa8;" horiz-adv-x="1024" d="M223 1305q0 32 22.5 54.5t53.5 22.5q32 0 55 -22t23 -53q0 -32 -22.5 -55t-53.5 -23q-32 0 -55 22.5t-23 53.5zM647 1305q0 32 22.5 54.5t53.5 22.5q32 0 55 -22t23 -53q0 -32 -22.5 -55t-53.5 -23q-32 0 -55 22.5t-23 53.5z" />
<glyph unicode="&#xa9;" horiz-adv-x="1830" d="M174 729q0 151 58.5 288.5t157.5 236.5t236.5 157.5t288.5 58.5q202 0 372.5 -99t270 -269.5t99.5 -372.5t-99.5 -372.5t-270 -269.5t-372.5 -99q-151 0 -288.5 58.5t-236.5 157.5t-157.5 236.5t-58.5 288.5zM272 729q0 -130 51.5 -250t137.5 -208t205.5 -140.5 t248.5 -52.5t248.5 52.5t206 140.5t138 208t51.5 250t-51.5 250t-138 208t-206 140.5t-248.5 52.5t-248.5 -52.5t-205.5 -140.5t-137.5 -208t-51.5 -250zM561 729q0 70 13.5 132t42.5 116t71 93t102.5 61t133.5 22q84 0 142.5 -25t125.5 -84l-62 -61q-55 49 -99.5 67.5 t-106.5 18.5q-60 0 -107.5 -18.5t-77.5 -49.5t-50 -75t-28 -92.5t-8 -104.5t8 -104.5t28 -92t50 -74.5t77.5 -49t107.5 -18q63 0 107 17.5t99 66.5l62 -61q-62 -56 -123.5 -81.5t-144.5 -25.5q-91 0 -161.5 33.5t-114 92t-65.5 133.5t-22 163z" />
<glyph unicode="&#xaa;" horiz-adv-x="915" d="M121 885q0 107 72 167t200 60h248v86q0 95 -50.5 140.5t-164.5 45.5q-82 0 -129 -21.5t-84 -76.5l-66 55q50 69 115.5 96t163.5 27q151 0 227 -66.5t76 -191.5v-536h-88v73q-49 -47 -101 -65.5t-132 -18.5q-87 0 -139.5 16.5t-90.5 55.5q-57 57 -57 154zM209 887 q0 -76 48 -112t151 -36q64 0 110 11.5t82 46.5q41 38 41 147v96h-238q-194 0 -194 -153z" />
<glyph unicode="&#xab;" horiz-adv-x="1079" d="M86 543l401 401v-135l-266 -266l266 -267v-135zM510 543l401 401v-135l-266 -266l266 -267v-135z" />
<glyph unicode="&#xac;" d="M109 492v96h835v-369h-96v273h-739z" />
<glyph unicode="&#xad;" horiz-adv-x="872" d="M168 492v96h537v-96h-537z" />
<glyph unicode="&#xae;" horiz-adv-x="1830" d="M174 729q0 151 58.5 288.5t157.5 236.5t236.5 157.5t288.5 58.5q202 0 372.5 -99t270 -269.5t99.5 -372.5t-99.5 -372.5t-270 -269.5t-372.5 -99q-151 0 -288.5 58.5t-236.5 157.5t-157.5 236.5t-58.5 288.5zM270 729q0 -130 51.5 -251t138 -209t206 -140.5t249.5 -52.5 q174 0 323 89t236 239.5t87 324.5t-87 324.5t-236 239.5t-323 89q-130 0 -249.5 -52.5t-206 -140.5t-138 -209t-51.5 -251zM682 319v822h262q103 0 178.5 -70t75.5 -172q0 -88 -50.5 -146.5t-135.5 -82.5l207 -351h-107l-203 343h-135v-343h-92zM774 743h160q74 0 123 44.5 t49 111.5q0 68 -49.5 113t-122.5 45h-160v-314z" />
<glyph unicode="&#xaf;" horiz-adv-x="1024" d="M209 1245v94h606v-94h-606z" />
<glyph unicode="&#xb0;" horiz-adv-x="937" d="M147 1151q0 133 94.5 227.5t227.5 94.5t227.5 -94.5t94.5 -227.5t-94.5 -227.5t-227.5 -94.5t-227.5 94.5t-94.5 227.5zM240 1151q0 -101 65.5 -168.5t163.5 -67.5t163.5 67.5t65.5 168.5q0 100 -66.5 167.5t-164.5 67.5t-162.5 -67t-64.5 -168z" />
<glyph unicode="&#xb1;" d="M109 0v96h835v-96h-835zM109 553v96h370v371h96v-371h369v-96h-369v-373h-96v373h-370z" />
<glyph unicode="&#xb2;" horiz-adv-x="688" d="M102 584v82l344 436q48 63 48 127q0 71 -40 113t-110 42q-66 0 -108.5 -38t-42.5 -117h-91q0 105 66.5 171t175.5 66q108 0 175 -64.5t67 -172.5q0 -52 -16 -91.5t-54 -86.5l-305 -385h375v-82h-484z" />
<glyph unicode="&#xb3;" horiz-adv-x="720" d="M102 807h93q4 -77 51 -114.5t116 -37.5q72 0 119 45t47 123q0 166 -172 166h-16v80h16q78 0 117 41.5t39 116.5t-43 116t-109 41q-68 0 -108.5 -38t-46.5 -105h-90q7 104 75 164.5t170 60.5q108 0 175 -65t67 -172q0 -143 -117 -195q133 -50 133 -211q0 -118 -72.5 -184 t-183.5 -66q-110 0 -183 59.5t-77 174.5z" />
<glyph unicode="&#xb4;" horiz-adv-x="1024" d="M416 1208l198 301h138l-217 -301h-119z" />
<glyph unicode="&#xb5;" horiz-adv-x="1138" d="M180 -471v1458h105v-612q0 -143 70 -219t202 -76t205.5 77.5t73.5 217.5v612h104v-987h-104v117q-111 -129 -291 -129q-162 0 -260 92v-551h-105z" />
<glyph unicode="&#xb6;" horiz-adv-x="1185" d="M92 1069q0 76 28.5 145.5t81.5 124t136.5 87t185.5 32.5h437v-1929h-105v1831h-252v-1831h-104v1151q-94 0 -173 33.5t-129 89t-78 124.5t-28 142z" />
<glyph unicode="&#xb7;" horiz-adv-x="540" d="M176 532q0 38 28 66.5t66 28.5t66.5 -28.5t28.5 -66.5t-28.5 -66t-66.5 -28t-66 28t-28 66z" />
<glyph unicode="&#xb8;" horiz-adv-x="1024" d="M371 -451l147 308h113l-131 -308h-129z" />
<glyph unicode="&#xb9;" horiz-adv-x="509" d="M92 1212v105l164 141h90v-874h-90v774z" />
<glyph unicode="&#xba;" horiz-adv-x="925" d="M147 1063q0 216 99 315q86 86 217 86t217 -86q57 -57 77.5 -135.5t20.5 -179.5t-20.5 -179.5t-77.5 -135.5q-86 -86 -217 -86t-217 86q-99 99 -99 315zM236 1063q0 -56 3 -93.5t19 -85.5t45 -77q66 -66 160 -66t160 66q42 42 54.5 105.5t12.5 150.5q0 56 -3 93.5 t-19 85.5t-45 77q-65 65 -160 65t-160 -65q-42 -42 -54.5 -105.5t-12.5 -150.5z" />
<glyph unicode="&#xbb;" horiz-adv-x="1079" d="M168 141v135l266 267l-266 266v135l401 -401zM592 141v135l266 267l-266 266v135l401 -401z" />
<glyph unicode="&#xbc;" horiz-adv-x="1548" d="M92 1212v105l164 141h90v-874h-90v774zM344 0l680 1458h92l-680 -1458h-92zM922 137v82l315 655h96l-313 -655h250v246h90v-246h106v-82h-106v-137h-90v137h-348z" />
<glyph unicode="&#xbd;" horiz-adv-x="1564" d="M92 1212v105l164 141h90v-874h-90v774zM313 0l680 1458h92l-679 -1458h-93zM979 0v82l344 436q47 61 47 127q0 71 -39.5 113.5t-109.5 42.5q-66 0 -109 -38t-43 -118h-90q0 105 66.5 171.5t175.5 66.5q108 0 174.5 -65t66.5 -173q0 -52 -16 -91t-53 -87l-306 -385h375 v-82h-483z" />
<glyph unicode="&#xbe;" horiz-adv-x="1650" d="M102 807h93q4 -77 51 -114.5t116 -37.5q72 0 119 45t47 123q0 166 -172 166h-16v80h16q78 0 117 41.5t39 116.5t-43 116t-109 41q-68 0 -108.5 -38t-46.5 -105h-90q7 104 75 164.5t170 60.5q108 0 175 -65t67 -172q0 -143 -117 -195q133 -50 133 -211q0 -118 -72.5 -184 t-183.5 -66q-110 0 -183 59.5t-77 174.5zM467 0l680 1458h92l-680 -1458h-92zM1024 137v82l315 655h97l-314 -655h250v246h90v-246h107v-82h-107v-137h-90v137h-348z" />
<glyph unicode="&#xbf;" horiz-adv-x="999" d="M102 -123q0 65 23 121.5t68 122.5l174 256q36 52 36 123v96h105v-92q0 -57 -13.5 -98t-45.5 -87l-173 -253q-36 -53 -52.5 -94t-16.5 -95q0 -114 75 -191t187 -77q117 0 189.5 78.5t72.5 189.5h105q0 -149 -103.5 -254.5t-263.5 -105.5q-157 0 -262 103t-105 257z M375 911q0 34 24 58t58 24t58 -24t24 -58t-24 -58t-58 -24t-58 24t-24 58z" />
<glyph unicode="&#xc0;" horiz-adv-x="1232" d="M31 0l536 1458h99l536 -1458h-119l-127 354h-680l-126 -354h-119zM311 453h611l-306 858zM377 1898h137l199 -301h-119z" />
<glyph unicode="&#xc1;" horiz-adv-x="1232" d="M31 0l536 1458h99l536 -1458h-119l-127 354h-680l-126 -354h-119zM311 453h611l-306 858zM520 1597l199 301h137l-217 -301h-119z" />
<glyph unicode="&#xc2;" horiz-adv-x="1232" d="M31 0l536 1458h99l536 -1458h-119l-127 354h-680l-126 -354h-119zM309 1597l252 301h111l252 -301h-117l-191 224l-190 -224h-117zM311 453h611l-306 858z" />
<glyph unicode="&#xc3;" horiz-adv-x="1232" d="M31 0l536 1458h99l536 -1458h-119l-127 354h-680l-126 -354h-119zM301 1712q44 44 80.5 67t56 27t45.5 4q41 0 70.5 -11.5t71.5 -37.5q68 -43 114 -43q26 0 52.5 13t68.5 55l62 -60q-44 -44 -82 -67t-57 -27t-44 -4q-27 0 -53 7.5t-43 16t-45 25.5q-73 43 -115 43 q-29 0 -53.5 -12t-67.5 -55zM311 453h611l-306 858z" />
<glyph unicode="&#xc4;" horiz-adv-x="1232" d="M31 0l536 1458h99l536 -1458h-119l-127 354h-680l-126 -354h-119zM311 453h611l-306 858zM328 1694q0 32 22 55t53 23q32 0 55 -22.5t23 -53.5q0 -32 -22 -55t-53 -23q-32 0 -55 22.5t-23 53.5zM752 1694q0 32 22 55t53 23q32 0 55 -22.5t23 -53.5q0 -32 -22.5 -55 t-53.5 -23q-32 0 -54.5 22.5t-22.5 53.5z" />
<glyph unicode="&#xc5;" horiz-adv-x="1232" d="M31 0l536 1458h99l536 -1458h-119l-127 354h-680l-126 -354h-119zM311 453h611l-306 858zM383 1763q0 97 68 165.5t165 68.5t165.5 -68.5t68.5 -165.5t-68.5 -166t-165.5 -69t-165 69t-68 166zM467 1763q0 -61 43.5 -105t105.5 -44t106 44t44 105t-44 104.5t-106 43.5 t-105.5 -43.5t-43.5 -104.5z" />
<glyph unicode="&#xc6;" horiz-adv-x="1845" d="M20 0l773 1458h938v-98h-775v-582h660v-98h-660v-582h775v-98h-883v354h-522l-185 -354h-121zM373 453h475v907z" />
<glyph unicode="&#xc7;" horiz-adv-x="1318" d="M168 729q0 101 1 151t4.5 117.5t12 103t23.5 79.5t38 76t56 65q72 72 167 110.5t198 38.5q123 0 219.5 -46t191.5 -136l-73 -74q-83 82 -157.5 120t-180.5 38q-168 0 -277 -112q-74 -74 -93 -176t-19 -355q0 -252 19 -354t93 -176q110 -113 277 -113q106 0 180.5 38 t157.5 120l73 -74q-95 -90 -191.5 -136t-219.5 -46q-103 0 -198 38.5t-167 110.5q-33 33 -56 65t-38 76t-23.5 79.5t-12 103t-4.5 117.5t-1 151zM489 -451l148 308h113l-132 -308h-129z" />
<glyph unicode="&#xc8;" horiz-adv-x="1224" d="M225 0v1458h885v-98h-774v-576h659v-98h-659v-588h774v-98h-885zM403 1898h138l198 -301h-118z" />
<glyph unicode="&#xc9;" horiz-adv-x="1224" d="M225 0v1458h885v-98h-774v-576h659v-98h-659v-588h774v-98h-885zM547 1597l198 301h138l-217 -301h-119z" />
<glyph unicode="&#xca;" horiz-adv-x="1224" d="M225 0v1458h885v-98h-774v-576h659v-98h-659v-588h774v-98h-885zM336 1597l252 301h110l252 -301h-116l-191 224l-190 -224h-117z" />
<glyph unicode="&#xcb;" horiz-adv-x="1224" d="M225 0v1458h885v-98h-774v-576h659v-98h-659v-588h774v-98h-885zM354 1694q0 32 22.5 55t53.5 23q32 0 55 -22.5t23 -53.5q0 -32 -22.5 -55t-53.5 -23q-32 0 -55 22.5t-23 53.5zM778 1694q0 32 22.5 55t53.5 23q32 0 55 -22.5t23 -53.5q0 -32 -22.5 -55t-53.5 -23 q-32 0 -55 22.5t-23 53.5z" />
<glyph unicode="&#xcc;" horiz-adv-x="561" d="M225 0v1458h111v-1458h-111zM225 1898h137l199 -301h-119z" />
<glyph unicode="&#xcd;" horiz-adv-x="561" d="M225 0v1458h111v-1458h-111zM225 1597l199 301h137l-217 -301h-119z" />
<glyph unicode="&#xce;" horiz-adv-x="561" d="M225 0v1458h111v-1458h-111zM225 1597l252 301h111l252 -301h-117l-191 224l-190 -224h-117z" />
<glyph unicode="&#xcf;" horiz-adv-x="561" d="M225 0v1458h111v-1458h-111zM225 1694q0 32 22.5 55t53.5 23q32 0 55 -22.5t23 -53.5q0 -32 -22.5 -55t-53.5 -23q-32 0 -55 22.5t-23 53.5zM649 1694q0 32 22.5 55t53.5 23q32 0 55 -22.5t23 -53.5q0 -32 -22.5 -55t-53.5 -23q-32 0 -55 22.5t-23 53.5z" />
<glyph unicode="&#xd0;" horiz-adv-x="1411" d="M82 692v86h166v680h491q141 0 250 -60t176 -175q37 -63 51.5 -110t20.5 -128.5t6 -255.5q0 -176 -8 -269t-22.5 -134.5t-47.5 -94.5q-66 -104 -177.5 -167.5t-262.5 -63.5h-477v692h-166zM358 96h353q240 0 352 166q49 72 59.5 149t10.5 308q0 230 -13 317t-69 164 q-64 87 -145.5 124.5t-194.5 37.5h-353v-584h365v-86h-365v-596z" />
<glyph unicode="&#xd1;" horiz-adv-x="1513" d="M225 0v1458h111l842 -1263v1263h110v-1458h-110l-842 1268v-1268h-111zM442 1712q44 44 81 67t56.5 27t45.5 4q41 0 70 -11t71 -38q68 -43 115 -43q26 0 52 13t68 55l62 -60q-44 -44 -81.5 -67t-57 -27t-43.5 -4q-39 0 -70 12t-72 37q-73 43 -114 43q-29 0 -53.5 -12 t-67.5 -55z" />
<glyph unicode="&#xd2;" horiz-adv-x="1335" d="M168 729q0 101 1 151t4.5 117.5t12 103t23.5 79.5t38 76t56 65q72 72 167 110.5t198 38.5t197.5 -38.5t166.5 -110.5q33 -33 56 -65t38 -76t23.5 -79.5t12 -103t4.5 -117.5t1 -151t-1 -151t-4.5 -117.5t-12 -103t-23.5 -79.5t-38 -76t-56 -65q-72 -72 -166.5 -110.5 t-197.5 -38.5t-198 38.5t-167 110.5q-33 33 -56 65t-38 76t-23.5 79.5t-12 103t-4.5 117.5t-1 151zM279 729q0 -252 19 -354t93 -176q113 -113 277 -113q163 0 276 113q74 74 93.5 176.5t19.5 353.5t-19.5 354t-93.5 177q-112 112 -276 112q-165 0 -277 -112 q-74 -74 -93 -176t-19 -355zM428 1898h137l199 -301h-119z" />
<glyph unicode="&#xd3;" horiz-adv-x="1335" d="M168 729q0 101 1 151t4.5 117.5t12 103t23.5 79.5t38 76t56 65q72 72 167 110.5t198 38.5t197.5 -38.5t166.5 -110.5q33 -33 56 -65t38 -76t23.5 -79.5t12 -103t4.5 -117.5t1 -151t-1 -151t-4.5 -117.5t-12 -103t-23.5 -79.5t-38 -76t-56 -65q-72 -72 -166.5 -110.5 t-197.5 -38.5t-198 38.5t-167 110.5q-33 33 -56 65t-38 76t-23.5 79.5t-12 103t-4.5 117.5t-1 151zM279 729q0 -252 19 -354t93 -176q113 -113 277 -113q163 0 276 113q74 74 93.5 176.5t19.5 353.5t-19.5 354t-93.5 177q-112 112 -276 112q-165 0 -277 -112 q-74 -74 -93 -176t-19 -355zM571 1597l199 301h137l-217 -301h-119z" />
<glyph unicode="&#xd4;" horiz-adv-x="1335" d="M168 729q0 101 1 151t4.5 117.5t12 103t23.5 79.5t38 76t56 65q72 72 167 110.5t198 38.5t197.5 -38.5t166.5 -110.5q33 -33 56 -65t38 -76t23.5 -79.5t12 -103t4.5 -117.5t1 -151t-1 -151t-4.5 -117.5t-12 -103t-23.5 -79.5t-38 -76t-56 -65q-72 -72 -166.5 -110.5 t-197.5 -38.5t-198 38.5t-167 110.5q-33 33 -56 65t-38 76t-23.5 79.5t-12 103t-4.5 117.5t-1 151zM279 729q0 -252 19 -354t93 -176q113 -113 277 -113q163 0 276 113q74 74 93.5 176.5t19.5 353.5t-19.5 354t-93.5 177q-112 112 -276 112q-165 0 -277 -112 q-74 -74 -93 -176t-19 -355zM360 1597l252 301h111l252 -301h-117l-190 224l-191 -224h-117z" />
<glyph unicode="&#xd5;" horiz-adv-x="1335" d="M168 729q0 101 1 151t4.5 117.5t12 103t23.5 79.5t38 76t56 65q72 72 167 110.5t198 38.5t197.5 -38.5t166.5 -110.5q33 -33 56 -65t38 -76t23.5 -79.5t12 -103t4.5 -117.5t1 -151t-1 -151t-4.5 -117.5t-12 -103t-23.5 -79.5t-38 -76t-56 -65q-72 -72 -166.5 -110.5 t-197.5 -38.5t-198 38.5t-167 110.5q-33 33 -56 65t-38 76t-23.5 79.5t-12 103t-4.5 117.5t-1 151zM279 729q0 -252 19 -354t93 -176q113 -113 277 -113q163 0 276 113q74 74 93.5 176.5t19.5 353.5t-19.5 354t-93.5 177q-112 112 -276 112q-165 0 -277 -112 q-74 -74 -93 -176t-19 -355zM352 1712q44 44 81 67t56.5 27t45.5 4q41 0 70 -11t71 -38q68 -43 115 -43q26 0 52 13t68 55l62 -60q-44 -44 -81.5 -67t-57 -27t-43.5 -4q-39 0 -70 12t-72 37q-73 43 -114 43q-29 0 -53.5 -12t-67.5 -55z" />
<glyph unicode="&#xd6;" horiz-adv-x="1335" d="M168 729q0 101 1 151t4.5 117.5t12 103t23.5 79.5t38 76t56 65q72 72 167 110.5t198 38.5t197.5 -38.5t166.5 -110.5q33 -33 56 -65t38 -76t23.5 -79.5t12 -103t4.5 -117.5t1 -151t-1 -151t-4.5 -117.5t-12 -103t-23.5 -79.5t-38 -76t-56 -65q-72 -72 -166.5 -110.5 t-197.5 -38.5t-198 38.5t-167 110.5q-33 33 -56 65t-38 76t-23.5 79.5t-12 103t-4.5 117.5t-1 151zM279 729q0 -252 19 -354t93 -176q113 -113 277 -113q163 0 276 113q74 74 93.5 176.5t19.5 353.5t-19.5 354t-93.5 177q-112 112 -276 112q-165 0 -277 -112 q-74 -74 -93 -176t-19 -355zM379 1694q0 32 22.5 55t53.5 23q32 0 54.5 -22.5t22.5 -53.5q0 -32 -22 -55t-53 -23q-32 0 -55 22.5t-23 53.5zM803 1694q0 32 22.5 55t53.5 23q32 0 54.5 -22.5t22.5 -53.5q0 -32 -22 -55t-53 -23q-32 0 -55 22.5t-23 53.5z" />
<glyph unicode="&#xd7;" d="M145 223l318 318l-318 317l64 64l317 -318l318 318l63 -64l-317 -317l317 -318l-63 -63l-318 317l-317 -317z" />
<glyph unicode="&#xd8;" horiz-adv-x="1335" d="M168 729q0 101 1 151t4.5 117.5t12 103t23.5 79.5t38 76t56 65q72 72 167 110.5t198 38.5q145 0 266 -71l72 149h108l-100 -209l18 -18q33 -33 56 -65t38 -76t23.5 -79.5t12 -103t4.5 -117.5t1 -151t-1 -151t-4.5 -117.5t-12 -103t-23.5 -79.5t-38 -76t-56 -65 q-72 -72 -166.5 -110.5t-197.5 -38.5q-146 0 -267 71l-71 -149h-109l101 209q-3 3 -9.5 9t-9.5 9q-33 33 -56 65t-38 76t-23.5 79.5t-12 103t-4.5 117.5t-1 151zM279 729q0 -238 15.5 -337.5t76.5 -170.5l518 1084q-94 67 -221 67q-165 0 -277 -112q-74 -74 -93 -176 t-19 -355zM446 154q95 -68 222 -68q163 0 276 113q74 74 93.5 176.5t19.5 353.5q0 238 -15.5 337.5t-76.5 170.5z" />
<glyph unicode="&#xd9;" horiz-adv-x="1406" d="M205 473v985h110v-971q0 -181 107.5 -291t282.5 -110t282 110t107 291v971h110v-985q0 -214 -139.5 -349.5t-359.5 -135.5t-360 135.5t-140 349.5zM465 1898h137l199 -301h-119z" />
<glyph unicode="&#xda;" horiz-adv-x="1406" d="M205 473v985h110v-971q0 -181 107.5 -291t282.5 -110t282 110t107 291v971h110v-985q0 -214 -139.5 -349.5t-359.5 -135.5t-360 135.5t-140 349.5zM608 1597l199 301h137l-217 -301h-119z" />
<glyph unicode="&#xdb;" horiz-adv-x="1406" d="M205 473v985h110v-971q0 -181 107.5 -291t282.5 -110t282 110t107 291v971h110v-985q0 -214 -139.5 -349.5t-359.5 -135.5t-360 135.5t-140 349.5zM397 1597l252 301h111l252 -301h-117l-190 224l-191 -224h-117z" />
<glyph unicode="&#xdc;" horiz-adv-x="1406" d="M205 473v985h110v-971q0 -181 107.5 -291t282.5 -110t282 110t107 291v971h110v-985q0 -214 -139.5 -349.5t-359.5 -135.5t-360 135.5t-140 349.5zM416 1694q0 32 22.5 55t53.5 23q32 0 54.5 -22.5t22.5 -53.5q0 -32 -22 -55t-53 -23q-32 0 -55 22.5t-23 53.5zM840 1694 q0 32 22 55t53 23q32 0 55 -22.5t23 -53.5q0 -32 -22 -55t-53 -23q-32 0 -55 22.5t-23 53.5z" />
<glyph unicode="&#xdd;" horiz-adv-x="1011" d="M20 1458h119l371 -737l362 737h119l-430 -854v-604h-110v604zM410 1597l198 301h137l-217 -301h-118z" />
<glyph unicode="&#xde;" horiz-adv-x="1323" d="M225 0v1458h111v-303h424q194 0 317 -112.5t123 -307.5t-123 -307.5t-317 -112.5h-424v-315h-111zM336 414h412q157 0 249.5 81t92.5 240t-92.5 240.5t-249.5 81.5h-412v-643z" />
<glyph unicode="&#xdf;" horiz-adv-x="1126" d="M199 0v1075q0 185 104 291.5t289 106.5q163 0 269 -84.5t106 -247.5q0 -164 -129 -250q77 -42 104 -96.5t27 -157.5v-363q0 -131 -80 -204q-42 -37 -86.5 -53.5t-108.5 -16.5h-110v92h90q47 0 74.5 10t58.5 35q57 45 57 150v366q0 96 -47 140q-47 47 -133 47h-100v92h80 q91 0 145.5 57.5t54.5 151.5q0 109 -71 174q-68 65 -213 65q-142 0 -209.5 -81.5t-67.5 -223.5v-1075h-104z" />
<glyph unicode="&#xe0;" horiz-adv-x="1073" d="M115 270q0 135 91 210t253 75h319v111q0 122 -65.5 181.5t-212.5 59.5q-104 0 -165.5 -28.5t-107.5 -96.5l-75 66q61 85 142 118t206 33q192 0 287.5 -82.5t95.5 -240.5v-676h-105v98q-62 -62 -128.5 -86t-172.5 -24q-110 0 -177 20.5t-114 69.5q-71 74 -71 192zM219 272 q0 -99 62.5 -145.5t195.5 -46.5q81 0 139.5 15t106.5 61q55 52 55 188v127h-307q-252 0 -252 -199zM270 1509h138l198 -301h-119z" />
<glyph unicode="&#xe1;" horiz-adv-x="1073" d="M115 270q0 135 91 210t253 75h319v111q0 122 -65.5 181.5t-212.5 59.5q-104 0 -165.5 -28.5t-107.5 -96.5l-75 66q61 85 142 118t206 33q192 0 287.5 -82.5t95.5 -240.5v-676h-105v98q-62 -62 -128.5 -86t-172.5 -24q-110 0 -177 20.5t-114 69.5q-71 74 -71 192zM219 272 q0 -99 62.5 -145.5t195.5 -46.5q81 0 139.5 15t106.5 61q55 52 55 188v127h-307q-252 0 -252 -199zM414 1208l198 301h138l-218 -301h-118z" />
<glyph unicode="&#xe2;" horiz-adv-x="1073" d="M115 270q0 135 91 210t253 75h319v111q0 122 -65.5 181.5t-212.5 59.5q-104 0 -165.5 -28.5t-107.5 -96.5l-75 66q61 85 142 118t206 33q192 0 287.5 -82.5t95.5 -240.5v-676h-105v98q-62 -62 -128.5 -86t-172.5 -24q-110 0 -177 20.5t-114 69.5q-71 74 -71 192z M203 1208l252 301h110l252 -301h-117l-190 224l-191 -224h-116zM219 272q0 -99 62.5 -145.5t195.5 -46.5q81 0 139.5 15t106.5 61q55 52 55 188v127h-307q-252 0 -252 -199z" />
<glyph unicode="&#xe3;" horiz-adv-x="1073" d="M115 270q0 135 91 210t253 75h319v111q0 122 -65.5 181.5t-212.5 59.5q-104 0 -165.5 -28.5t-107.5 -96.5l-75 66q61 85 142 118t206 33q192 0 287.5 -82.5t95.5 -240.5v-676h-105v98q-62 -62 -128.5 -86t-172.5 -24q-110 0 -177 20.5t-114 69.5q-71 74 -71 192z M195 1323q44 44 80.5 67t56 27t45.5 4q41 0 70 -11t71 -38q68 -43 115 -43q26 0 52.5 13t68.5 55l61 -60q-44 -44 -81.5 -67t-57 -27t-43.5 -4q-27 0 -53 7.5t-43 16t-45 25.5q-73 43 -115 43q-29 0 -53.5 -12t-67.5 -55zM219 272q0 -99 62.5 -145.5t195.5 -46.5 q81 0 139.5 15t106.5 61q55 52 55 188v127h-307q-252 0 -252 -199z" />
<glyph unicode="&#xe4;" horiz-adv-x="1073" d="M115 270q0 135 91 210t253 75h319v111q0 122 -65.5 181.5t-212.5 59.5q-104 0 -165.5 -28.5t-107.5 -96.5l-75 66q61 85 142 118t206 33q192 0 287.5 -82.5t95.5 -240.5v-676h-105v98q-62 -62 -128.5 -86t-172.5 -24q-110 0 -177 20.5t-114 69.5q-71 74 -71 192zM219 272 q0 -99 62.5 -145.5t195.5 -46.5q81 0 139.5 15t106.5 61q55 52 55 188v127h-307q-252 0 -252 -199zM221 1305q0 32 22.5 54.5t53.5 22.5q32 0 55 -22t23 -53q0 -32 -22.5 -55t-53.5 -23q-32 0 -55 22.5t-23 53.5zM645 1305q0 32 22.5 54.5t53.5 22.5q32 0 55 -22t23 -53 q0 -32 -22.5 -55t-53.5 -23q-32 0 -55 22.5t-23 53.5z" />
<glyph unicode="&#xe5;" horiz-adv-x="1073" d="M115 270q0 135 91 210t253 75h319v111q0 122 -65.5 181.5t-212.5 59.5q-104 0 -165.5 -28.5t-107.5 -96.5l-75 66q61 85 142 118t206 33q192 0 287.5 -82.5t95.5 -240.5v-676h-105v98q-62 -62 -128.5 -86t-172.5 -24q-110 0 -177 20.5t-114 69.5q-71 74 -71 192zM219 272 q0 -99 62.5 -145.5t195.5 -46.5q81 0 139.5 15t106.5 61q55 52 55 188v127h-307q-252 0 -252 -199zM276 1386q0 97 68.5 165.5t165.5 68.5t165 -68.5t68 -165.5t-68 -166t-165 -69t-165.5 69t-68.5 166zM360 1386q0 -61 44 -105t106 -44t105.5 43.5t43.5 105.5 q0 61 -43.5 104.5t-105.5 43.5t-106 -43.5t-44 -104.5z" />
<glyph unicode="&#xe6;" horiz-adv-x="1708" d="M115 270q0 135 91 210t253 75h319v111q0 122 -65.5 181.5t-212.5 59.5q-104 0 -165.5 -28.5t-107.5 -96.5l-75 66q61 85 142 118t206 33q279 0 354 -174q105 174 320 174q185 0 290 -128t105 -353v-47h-686q0 -188 82.5 -288.5t238.5 -100.5q86 0 147.5 27.5t125.5 91.5 l77 -62q-79 -79 -159.5 -115t-198.5 -36q-249 0 -352 184q-61 -100 -145.5 -142t-221.5 -42q-110 0 -177 20.5t-114 69.5q-71 74 -71 192zM219 272q0 -99 62.5 -145.5t195.5 -46.5q81 0 139.5 15t106.5 61q55 52 55 188v127h-307q-252 0 -252 -199zM883 555h581 q-3 72 -9.5 106.5t-24.5 79.5q-32 76 -101.5 121t-154.5 45t-154.5 -45t-101.5 -121q-19 -46 -25.5 -81t-9.5 -105z" />
<glyph unicode="&#xe7;" horiz-adv-x="1019" d="M141 494q0 235 116.5 370t317.5 135q104 0 176 -32.5t150 -118.5l-72 -66q-63 70 -119 97.5t-135 27.5q-172 0 -262 -131q-37 -54 -52 -118t-15 -164t15 -164.5t52 -118.5q90 -131 262 -131q79 0 135 27.5t119 97.5l72 -66q-78 -86 -150 -118.5t-176 -32.5 q-201 0 -317.5 135.5t-116.5 370.5zM371 -451l147 308h113l-131 -308h-129z" />
<glyph unicode="&#xe8;" horiz-adv-x="1071" d="M141 494q0 238 105 371.5t291 133.5q185 0 290 -128t105 -353v-47h-686q0 -188 82.5 -288.5t238.5 -100.5q86 0 147.5 27.5t125.5 91.5l78 -62q-79 -79 -159 -115t-198 -36q-204 0 -312 129.5t-108 376.5zM246 555h581q-3 72 -9.5 106.5t-24.5 79.5q-32 76 -101.5 121 t-154.5 45t-154.5 -45t-101.5 -121q-19 -46 -25.5 -81t-9.5 -105zM301 1509h137l199 -301h-119z" />
<glyph unicode="&#xe9;" horiz-adv-x="1071" d="M141 494q0 238 105 371.5t291 133.5q185 0 290 -128t105 -353v-47h-686q0 -188 82.5 -288.5t238.5 -100.5q86 0 147.5 27.5t125.5 91.5l78 -62q-79 -79 -159 -115t-198 -36q-204 0 -312 129.5t-108 376.5zM246 555h581q-3 72 -9.5 106.5t-24.5 79.5q-32 76 -101.5 121 t-154.5 45t-154.5 -45t-101.5 -121q-19 -46 -25.5 -81t-9.5 -105zM444 1208l199 301h137l-217 -301h-119z" />
<glyph unicode="&#xea;" horiz-adv-x="1071" d="M141 494q0 238 105 371.5t291 133.5q185 0 290 -128t105 -353v-47h-686q0 -188 82.5 -288.5t238.5 -100.5q86 0 147.5 27.5t125.5 91.5l78 -62q-79 -79 -159 -115t-198 -36q-204 0 -312 129.5t-108 376.5zM233 1208l252 301h111l252 -301h-117l-190 224l-191 -224h-117z M246 555h581q-3 72 -9.5 106.5t-24.5 79.5q-32 76 -101.5 121t-154.5 45t-154.5 -45t-101.5 -121q-19 -46 -25.5 -81t-9.5 -105z" />
<glyph unicode="&#xeb;" horiz-adv-x="1071" d="M141 494q0 238 105 371.5t291 133.5q185 0 290 -128t105 -353v-47h-686q0 -188 82.5 -288.5t238.5 -100.5q86 0 147.5 27.5t125.5 91.5l78 -62q-79 -79 -159 -115t-198 -36q-204 0 -312 129.5t-108 376.5zM246 555h581q-3 72 -9.5 106.5t-24.5 79.5q-32 76 -101.5 121 t-154.5 45t-154.5 -45t-101.5 -121q-19 -46 -25.5 -81t-9.5 -105zM252 1305q0 32 22.5 54.5t53.5 22.5q32 0 55 -22t23 -53q0 -32 -22.5 -55t-53.5 -23q-32 0 -55 22.5t-23 53.5zM676 1305q0 32 22.5 54.5t53.5 22.5q32 0 54.5 -22t22.5 -53q0 -32 -22 -55t-53 -23 q-32 0 -55 22.5t-23 53.5z" />
<glyph unicode="&#xec;" horiz-adv-x="501" d="M199 0v987h104v-987h-104zM199 1509h137l199 -301h-119z" />
<glyph unicode="&#xed;" horiz-adv-x="501" d="M199 0v987h104v-987h-104zM199 1208l198 301h138l-218 -301h-118z" />
<glyph unicode="&#xee;" horiz-adv-x="501" d="M199 0v987h104v-987h-104zM199 1208l252 301h110l252 -301h-117l-190 224l-191 -224h-116z" />
<glyph unicode="&#xef;" horiz-adv-x="501" d="M199 0v987h104v-987h-104zM199 1305q0 32 22 54.5t53 22.5q32 0 55 -22t23 -53q0 -32 -22.5 -55t-53.5 -23q-32 0 -54.5 22.5t-22.5 53.5zM623 1305q0 32 22 54.5t53 22.5q32 0 55 -22t23 -53q0 -32 -22.5 -55t-53.5 -23q-32 0 -54.5 22.5t-22.5 53.5z" />
<glyph unicode="&#xf0;" horiz-adv-x="1077" d="M141 494q0 274 123 397q108 108 275 108q97 0 153 -34l-137 231h-240v78h195l-109 184h109l106 -184h162v-78h-116l147 -252q80 -137 103.5 -225.5t23.5 -224.5q0 -275 -123 -398q-108 -108 -274 -108q-167 0 -275 108q-123 123 -123 398zM246 494q0 -112 16.5 -193.5 t71.5 -136.5q84 -84 205 -84q120 0 204 84q55 55 71.5 136.5t16.5 193.5t-16.5 193t-71.5 136q-84 84 -204 84q-121 0 -205 -84q-55 -55 -71.5 -136t-16.5 -193z" />
<glyph unicode="&#xf1;" horiz-adv-x="1144" d="M199 0v987h104v-117q111 129 291 129q165 0 262 -94q102 -97 102 -274v-631h-104v612q0 143 -70 219t-202 76t-205.5 -77.5t-73.5 -217.5v-612h-104zM266 1323q44 44 81 67t56.5 27t45.5 4q41 0 70 -11t71 -38q68 -43 115 -43q26 0 52 13t68 55l62 -60q-44 -44 -81.5 -67 t-57 -27t-43.5 -4q-39 0 -70 12t-72 37q-73 43 -114 43q-29 0 -53.5 -12t-67.5 -55z" />
<glyph unicode="&#xf2;" horiz-adv-x="1077" d="M272 494q0 274 123 397q108 108 275 108q166 0 274 -108q123 -123 123 -397q0 -275 -123 -398q-108 -108 -274 -108q-167 0 -275 108q-123 123 -123 398zM272 1509h138l198 -301h-119zM377 494q0 -112 16.5 -193.5t71.5 -136.5q84 -84 205 -84q120 0 204 84q55 55 72 137 t17 193t-17 192.5t-72 136.5q-84 84 -204 84q-121 0 -205 -84q-55 -55 -71.5 -136t-16.5 -193z" />
<glyph unicode="&#xf3;" horiz-adv-x="1077" d="M141 494q0 274 123 397q108 108 275 108q166 0 274 -108q123 -123 123 -397q0 -275 -123 -398q-108 -108 -274 -108q-167 0 -275 108q-123 123 -123 398zM246 494q0 -112 16.5 -193.5t71.5 -136.5q84 -84 205 -84q120 0 204 84q55 55 71.5 136.5t16.5 193.5t-16.5 193 t-71.5 136q-84 84 -204 84q-121 0 -205 -84q-55 -55 -71.5 -136t-16.5 -193zM442 1208l199 301h137l-217 -301h-119z" />
<glyph unicode="&#xf4;" horiz-adv-x="1077" d="M141 494q0 274 123 397q108 108 275 108q166 0 274 -108q123 -123 123 -397q0 -275 -123 -398q-108 -108 -274 -108q-167 0 -275 108q-123 123 -123 398zM231 1208l252 301h111l252 -301h-117l-190 224l-191 -224h-117zM246 494q0 -112 16.5 -193.5t71.5 -136.5 q84 -84 205 -84q120 0 204 84q55 55 71.5 136.5t16.5 193.5t-16.5 193t-71.5 136q-84 84 -204 84q-121 0 -205 -84q-55 -55 -71.5 -136t-16.5 -193z" />
<glyph unicode="&#xf5;" horiz-adv-x="1077" d="M141 494q0 274 123 397q108 108 275 108q166 0 274 -108q123 -123 123 -397q0 -275 -123 -398q-108 -108 -274 -108q-167 0 -275 108q-123 123 -123 398zM223 1323q44 44 81 67t56.5 27t45.5 4q41 0 70 -11t71 -38q68 -43 115 -43q26 0 52 13t68 55l62 -60 q-44 -44 -81.5 -67t-57 -27t-43.5 -4q-39 0 -70 12t-72 37q-73 43 -114 43q-29 0 -53.5 -12t-67.5 -55zM246 494q0 -112 16.5 -193.5t71.5 -136.5q84 -84 205 -84q120 0 204 84q55 55 71.5 136.5t16.5 193.5t-16.5 193t-71.5 136q-84 84 -204 84q-121 0 -205 -84 q-55 -55 -71.5 -136t-16.5 -193z" />
<glyph unicode="&#xf6;" horiz-adv-x="1077" d="M141 494q0 274 123 397q108 108 275 108q166 0 274 -108q123 -123 123 -397q0 -275 -123 -398q-108 -108 -274 -108q-167 0 -275 108q-123 123 -123 398zM246 494q0 -112 16.5 -193.5t71.5 -136.5q84 -84 205 -84q120 0 204 84q55 55 71.5 136.5t16.5 193.5t-16.5 193 t-71.5 136q-84 84 -204 84q-121 0 -205 -84q-55 -55 -71.5 -136t-16.5 -193zM250 1305q0 32 22.5 54.5t53.5 22.5q32 0 54.5 -22t22.5 -53q0 -32 -22 -55t-53 -23q-32 0 -55 22.5t-23 53.5zM674 1305q0 32 22.5 54.5t53.5 22.5q32 0 54.5 -22t22.5 -53q0 -32 -22 -55 t-53 -23q-32 0 -55 22.5t-23 53.5z" />
<glyph unicode="&#xf7;" d="M109 492v96h835v-96h-835zM432 193q0 38 28 66t66 28t66.5 -28t28.5 -66t-28.5 -66.5t-66.5 -28.5t-66 28.5t-28 66.5zM432 887q0 38 28 66t66 28t66.5 -28t28.5 -66t-28.5 -66t-66.5 -28t-66 28t-28 66z" />
<glyph unicode="&#xf8;" horiz-adv-x="1077" d="M141 494q0 274 123 397q108 108 275 108q124 0 215 -61l82 139h98l-115 -192q117 -124 117 -391q0 -275 -123 -398q-108 -108 -274 -108q-123 0 -215 59l-82 -137h-99l115 192q-117 124 -117 392zM246 494q0 -64 3 -107.5t18.5 -100.5t43.5 -96l394 666q-73 51 -166 51 q-121 0 -205 -84q-55 -55 -71.5 -136t-16.5 -193zM373 131q73 -51 166 -51q120 0 204 84q55 55 71.5 136.5t16.5 193.5q0 64 -3 107.5t-18.5 100t-43.5 95.5z" />
<glyph unicode="&#xf9;" horiz-adv-x="1144" d="M186 356v631h105v-612q0 -143 70 -219t202 -76t205.5 77.5t73.5 217.5v612h104v-987h-104v117q-111 -129 -291 -129q-165 0 -262 94q-103 98 -103 274zM326 1509h137l199 -301h-119z" />
<glyph unicode="&#xfa;" horiz-adv-x="1144" d="M186 356v631h105v-612q0 -143 70 -219t202 -76t205.5 77.5t73.5 217.5v612h104v-987h-104v117q-111 -129 -291 -129q-165 0 -262 94q-103 98 -103 274zM469 1208l199 301h137l-217 -301h-119z" />
<glyph unicode="&#xfb;" horiz-adv-x="1144" d="M186 356v631h105v-612q0 -143 70 -219t202 -76t205.5 77.5t73.5 217.5v612h104v-987h-104v117q-111 -129 -291 -129q-165 0 -262 94q-103 98 -103 274zM258 1208l252 301h111l251 -301h-116l-191 224l-190 -224h-117z" />
<glyph unicode="&#xfc;" horiz-adv-x="1144" d="M186 356v631h105v-612q0 -143 70 -219t202 -76t205.5 77.5t73.5 217.5v612h104v-987h-104v117q-111 -129 -291 -129q-165 0 -262 94q-103 98 -103 274zM276 1305q0 32 22.5 54.5t53.5 22.5q32 0 55 -22t23 -53q0 -32 -22.5 -55t-53.5 -23q-32 0 -55 22.5t-23 53.5z M700 1305q0 32 22.5 54.5t53.5 22.5q32 0 55 -22t23 -53q0 -32 -22.5 -55t-53.5 -23q-32 0 -55 22.5t-23 53.5z" />
<glyph unicode="&#xfd;" horiz-adv-x="880" d="M29 987h114l297 -864l297 864h115l-459 -1255q-27 -81 -67 -115q-66 -63 -187 -63h-49v92h39q81 0 116 28.5t64 106.5l80 219zM344 1208l199 301h137l-217 -301h-119z" />
<glyph unicode="&#xfe;" horiz-adv-x="1105" d="M199 -471v1929h104v-598q60 80 130 109.5t163 29.5q75 0 139 -23.5t103 -62.5q127 -127 127 -419q0 -293 -127 -420q-39 -39 -103 -62.5t-139 -23.5q-93 0 -163 29.5t-130 109.5v-598h-104zM303 494q0 -69 5.5 -123t23 -110.5t47.5 -94.5t81.5 -62t121.5 -24t121.5 24 t81 61.5t47 95t23 111t5.5 122.5t-5.5 122.5t-23 110.5t-47 94.5t-81 61.5t-121.5 24t-121.5 -24t-81.5 -61.5t-47.5 -94.5t-23 -110.5t-5.5 -122.5z" />
<glyph unicode="&#xff;" horiz-adv-x="880" d="M29 987h114l297 -864l297 864h115l-459 -1255q-27 -81 -67 -115q-66 -63 -187 -63h-49v92h39q81 0 116 28.5t64 106.5l80 219zM152 1305q0 32 22 54.5t53 22.5q32 0 55 -22t23 -53q0 -32 -22.5 -55t-53.5 -23q-32 0 -54.5 22.5t-22.5 53.5zM575 1305q0 32 22.5 54.5 t53.5 22.5q32 0 55 -22t23 -53q0 -32 -22.5 -55t-53.5 -23q-32 0 -55 22.5t-23 53.5z" />
<glyph unicode="&#x152;" horiz-adv-x="2041" d="M168 729q0 101 1 151t4.5 117.5t12 103t23.5 79.5t38 76t56 65q72 72 167 110.5t198 38.5q241 0 389 -186v174h864v-96h-756q0 -99 1 -293t1 -291h641v-86h-641q0 -100 -1 -298t-1 -298h762v-96h-870v174q-72 -91 -173.5 -138.5t-215.5 -47.5q-103 0 -198 38.5 t-167 110.5q-33 33 -56 65t-38 76t-23.5 79.5t-12 103t-4.5 117.5t-1 151zM279 729q0 -252 19 -354t93 -176q113 -113 277 -113q163 0 276 113q74 74 93.5 176.5t19.5 353.5t-19.5 354t-93.5 177q-112 112 -276 112q-165 0 -277 -112q-74 -74 -93 -176t-19 -355z" />
<glyph unicode="&#x153;" horiz-adv-x="1761" d="M141 494q0 274 123 397q108 108 275 108q116 0 208.5 -56.5t139.5 -158.5q48 103 135 159t205 56q185 0 290 -128t105 -353v-47h-686q0 -188 82.5 -288.5t238.5 -100.5q86 0 147.5 27.5t125.5 91.5l78 -62q-79 -79 -159 -115t-198 -36q-263 0 -364 215 q-47 -103 -139.5 -159t-208.5 -56q-167 0 -275 108q-123 123 -123 398zM246 494q0 -112 16.5 -193.5t71.5 -136.5q84 -84 205 -84q120 0 204 84q55 55 71.5 136.5t16.5 193.5t-16.5 193t-71.5 136q-84 84 -204 84q-121 0 -205 -84q-55 -55 -71.5 -136t-16.5 -193zM936 555 h582q-3 70 -9.5 105t-25.5 81q-32 76 -101.5 121t-154.5 45t-154.5 -45t-101.5 -121q-19 -46 -25.5 -81t-9.5 -105z" />
<glyph unicode="&#x178;" horiz-adv-x="1011" d="M20 1458h119l371 -737l362 737h119l-430 -854v-604h-110v604zM217 1694q0 32 22.5 55t53.5 23q32 0 55 -22.5t23 -53.5q0 -32 -22.5 -55t-53.5 -23q-32 0 -55 22.5t-23 53.5zM641 1694q0 32 22.5 55t53.5 23q32 0 55 -22.5t23 -53.5q0 -32 -22.5 -55t-53.5 -23 q-32 0 -55 22.5t-23 53.5z" />
<glyph unicode="&#x2c6;" horiz-adv-x="1024" d="M205 1208l252 301h110l252 -301h-117l-190 224l-190 -224h-117z" />
<glyph unicode="&#x2dc;" horiz-adv-x="1024" d="M197 1323q44 44 80.5 67t56 27t45.5 4q41 0 70 -11t71 -38q68 -43 115 -43q26 0 52.5 13t68.5 55l61 -60q-44 -44 -81.5 -67t-57 -27t-43.5 -4q-27 0 -53 7.5t-43 16t-45 25.5q-73 43 -115 43q-29 0 -53.5 -12t-67.5 -55z" />
<glyph unicode="&#x2000;" horiz-adv-x="998" />
<glyph unicode="&#x2001;" horiz-adv-x="1997" />
<glyph unicode="&#x2002;" horiz-adv-x="998" />
<glyph unicode="&#x2003;" horiz-adv-x="1997" />
<glyph unicode="&#x2004;" horiz-adv-x="665" />
<glyph unicode="&#x2005;" horiz-adv-x="499" />
<glyph unicode="&#x2006;" horiz-adv-x="332" />
<glyph unicode="&#x2007;" horiz-adv-x="332" />
<glyph unicode="&#x2008;" horiz-adv-x="249" />
<glyph unicode="&#x2009;" horiz-adv-x="399" />
<glyph unicode="&#x200a;" horiz-adv-x="110" />
<glyph unicode="&#x2010;" horiz-adv-x="872" d="M168 492v96h537v-96h-537z" />
<glyph unicode="&#x2011;" horiz-adv-x="872" d="M168 492v96h537v-96h-537z" />
<glyph unicode="&#x2012;" horiz-adv-x="872" d="M168 492v96h537v-96h-537z" />
<glyph unicode="&#x2013;" d="M109 492v96h835v-96h-835z" />
<glyph unicode="&#x2014;" horiz-adv-x="1787" d="M168 492v96h1452v-96h-1452z" />
<glyph unicode="&#x2018;" horiz-adv-x="532" d="M195 1315v143l143 144v-287h-143z" />
<glyph unicode="&#x2019;" horiz-adv-x="532" d="M195 1171v287h143v-143z" />
<glyph unicode="&#x201a;" horiz-adv-x="532" d="M195 -143v286h143v-143z" />
<glyph unicode="&#x201c;" horiz-adv-x="851" d="M195 1315v143l143 144v-287h-143zM514 1315v143l143 144v-287h-143z" />
<glyph unicode="&#x201d;" horiz-adv-x="851" d="M195 1171v287h143v-143zM514 1171v287h143v-143z" />
<glyph unicode="&#x201e;" horiz-adv-x="851" d="M195 -143v286h143v-143zM514 -143v286h143v-143z" />
<glyph unicode="&#x2022;" horiz-adv-x="1118" d="M225 684q0 138 98 236t236 98t236 -98t98 -236t-98 -236t-236 -98t-236 98t-98 236z" />
<glyph unicode="&#x2026;" horiz-adv-x="1482" d="M176 88q0 38 28 66t66 28t66.5 -28t28.5 -66t-28.5 -66t-66.5 -28t-66 28t-28 66zM647 88q0 38 28 66t66 28t66.5 -28t28.5 -66t-28.5 -66t-66.5 -28t-66 28t-28 66zM1118 88q0 38 28 66t66 28t66.5 -28t28.5 -66t-28.5 -66t-66.5 -28t-66 28t-28 66z" />
<glyph unicode="&#x202f;" horiz-adv-x="399" />
<glyph unicode="&#x2039;" horiz-adv-x="655" d="M86 543l401 401v-135l-266 -266l266 -267v-135z" />
<glyph unicode="&#x203a;" horiz-adv-x="655" d="M168 141v135l266 267l-266 266v135l401 -401z" />
<glyph unicode="&#x205f;" horiz-adv-x="499" />
<glyph unicode="&#x2122;" horiz-adv-x="1656" d="M66 1374v84h589v-84h-249v-790h-91v790h-249zM817 584v874h90l273 -553l272 553h90v-874h-90v671l-225 -446h-94l-226 446v-671h-90z" />
<glyph unicode="&#x25fc;" horiz-adv-x="983" d="M0 0v983h983v-983h-983z" />
<glyph unicode="&#xfb01;" horiz-adv-x="1116" d="M90 909v78h135v213q0 116 62 187t176 71h90v-92h-72q-151 0 -151 -164v-215h223v-78h-223v-909h-105v909h-135zM788 1393q0 32 22.5 54.5t53.5 22.5q32 0 55 -22t23 -53q0 -32 -22.5 -55t-53.5 -23q-32 0 -55 22.5t-23 53.5zM813 0v987h105v-987h-105z" />
<glyph unicode="&#xfb02;" horiz-adv-x="1200" d="M94 909v78h135v213q0 116 62 187t176 71h90v-92h-72q-151 0 -151 -164v-215h223v-78h-223v-909h-105v909h-135zM807 256v1202h104v-1200q0 -87 33.5 -126.5t118.5 -39.5h72v-92h-91q-117 0 -177 68.5t-60 187.5z" />
</font>
</defs>
</svg>
